衡山腊肉淘宝店
返回列表 发帖

女主播直播打野炮高清85分钟完整版,2017年最火门事件之一

2017年5月网上最火门事件之一
事情经过:国内一女主播为博求出位,现场让聊天室网友观看直播随机勾引摩的司机打野炮,对白超精彩,全程普通话无尿点无水印无广告。(强烈建议戴耳机观看)

【影片名称】:广东女主播半夜勾引河南摩的司机野战有屌丝观众建议去墓地玩被女主播拒绝了
【影片格式】:MP4
【影片大小】:425MB
【影片时间】:01:16:01
【影片说明】:无码
【影片截图】:

女主播直播打野炮高清85分钟完整版

4.jpg
2017-10-23 13:51

不敢截太暴露的图,因为那样就违法了。
影片播放测试
General
Complete name                  : E:\TD\精選國產自拍偷拍合集 Part21.4 Mixed Pack\对白非常精彩广东女主播半夜勾引河南摩的司机野战有屌丝观众建议去墓地玩被女主播拒绝了.mp4
Format                         : MPEG-4
Format profile                 : Base Media
Codec ID                       : isom (isom/iso2/avc1/mp41)
File size                      : 425 MiB
Duration                       : 1 h 16 min
Overall bit rate mode          : Variable
Overall bit rate               : 782 kb/s
Encoded date                   : UTC 1970-01-01 00:00:00
Tagged date                    : UTC 1970-01-01 00:00:00

Video
ID                             : 1
Format                         : AVC
Format/Info                    : Advanced Video Codec
Format profile                 : Main@L3
Format settings, CABAC         : No
Format settings, ReFrames      : 1 frame
Codec ID                       : avc1
Codec ID/Info                  : Advanced Video Coding
Duration                       : 1 h 16 min
Source duration                : 4 min 26 s
Bit rate                       : 650 kb/s
Width                          : 360 pixels
Height                         : 640 pixels
Display aspect ratio           : 0.563
Frame rate mode                : Constant
Frame rate                     : 25.000 FPS
Color space                    : YUV
Chroma subsampling             : 4:2:0
Bit depth                      : 8 bits
Scan type                      : Progressive
Bits/(Pixel*Frame)             : 0.113
Stream size                    : 353 MiB (83%)
Source stream size             : 353 MiB (83%)
Encoded date                   : UTC 1970-01-01 00:00:00
Tagged date                    : UTC 1970-01-01 00:00:00
mdhd_Duration                  : 4561880

Audio
ID                             : 2
Format                         : AAC
Format/Info                    : Advanced Audio Codec
Format profile                 : LC
Codec ID                       : 40
Duration                       : 1 h 16 min
Duration_LastFrame             : -23 ms
Bit rate mode                  : Variable
Bit rate                       : 128 kb/s
Channel(s)                     : 2 channels
Channel positions              : Front: L R
Sampling rate                  : 44.1 kHz
Frame rate                     : 43.066 FPS (1024 spf)
Compression mode               : Lossy
Stream size                    : 69.6 MiB (16%)
Encoded date                   : UTC 1970-01-01 00:00:00
Tagged date                    : UTC 1970-01-01 00:00:00
女主播直播打野炮高清85分钟完整版下载地址我们安全知识网不提供,提供涉黄视频下载地址为违法行为,如果你想看女主播直播打野炮高清85分钟完整版,扫描下面二维码关注公众号,在公众号里回复“国产”即可得到女主播直播打野炮高清85分钟完整版下载地址。
http://www.anquanzs.com/搜索安全知识网公众号anquanzhishiwang进行关注,掌握最新动态

返回列表

衡山腊肉-湖南本土特产,中国四大腊肉之一 关闭


衡山腊肉

湖南衡山,好山好水好腊肉,衡山腊肉,中国四大腊肉之一。欢迎品尝,买二免费送萝卜干,免费包邮


查看

安全知识网创建于2011/07/30,您看到的内容均为会员发表,并不代表安全知识网立场,转载时请注明作者和出处!

管理员:安全知识(QQ 38620772) 官方QQ交流群号码:53633559

拒绝任何人以任何形式在本站发表与中华人民共和国法律相抵触的言论!。

咨询/投诉建议/广告投放 联系:QQ 38620772 邮箱:38620772@qq.com